<?xml version="1.0" standalone="no"?>
<!DOCTYPE svg PUBLIC "-//W3C//DTD SVG 1.1//EN" "http://www.w3.org/Graphics/SVG/1.1/DTD/svg11.dtd" >
<!--
2013-9-30: Created.
-->
<svg>
<metadata>
Created by iconfont
</metadata>
<defs>

<font id="iconfont" horiz-adv-x="1024" >
  <font-face
    font-family="iconfont"
    font-weight="500"
    font-stretch="normal"
    units-per-em="1024"
    ascent="896"
    descent="-128"
  />
    <missing-glyph />
    
    <glyph glyph-name="x" unicode="x" horiz-adv-x="1001"
d="M281 543q-27 -1 -53 -1h-83q-18 0 -36.5 -6t-32.5 -18.5t-23 -32t-9 -45.5v-76h912v41q0 16 -0.5 30t-0.5 18q0 13 -5 29t-17 29.5t-31.5 22.5t-49.5 9h-133v-97h-438v97zM955 310v-52q0 -23 0.5 -52t0.5 -58t-10.5 -47.5t-26 -30t-33 -16t-31.5 -4.5q-14 -1 -29.5 -0.5
t-29.5 0.5h-32l-45 128h-439l-44 -128h-29h-34q-20 0 -45 1q-25 0 -41 9.5t-25.5 23t-13.5 29.5t-4 30v167h911zM163 247q-12 0 -21 -8.5t-9 -21.5t9 -21.5t21 -8.5q13 0 22 8.5t9 21.5t-9 21.5t-22 8.5zM316 123q-8 -26 -14 -48q-5 -19 -10.5 -37t-7.5 -25t-3 -15t1 -14.5
t9.5 -10.5t21.5 -4h37h67h81h80h64h36q23 0 34 12t2 38q-5 13 -9.5 30.5t-9.5 34.5q-5 19 -11 39h-368zM336 498v228q0 11 2.5 23t10 21.5t20.5 15.5t34 6h188q31 0 51.5 -14.5t20.5 -52.5v-227h-327z" />
    

    
    <glyph glyph-name="loading" unicode="&#58959;" d="M923.424 448.256M512.064-67.296c-96.16 0-189.344 30.816-267.68 89.472-95.744 71.712-157.856 176.48-174.848 294.912-16.992 118.464 13.152 236.448 84.864 332.224 148.096 197.76 429.44 238.08 627.136 90.08 82.88-62.08 142.016-151.584 166.56-252 4.192-17.184-6.336-34.496-23.488-38.688-17.152-4.064-34.496 6.304-38.688 23.488-20.992 86.048-71.68 162.752-142.752 215.968C573.792 815.04 332.608 780.448 205.632 610.944c-61.472-82.08-87.296-183.2-72.704-284.736 14.56-101.536 67.808-191.296 149.888-252.736 169.536-127.04 410.688-92.384 537.6 77.12 33.216 44.384 56 94.112 67.648 147.84 3.776 17.28 20.896 28.256 38.048 24.512 17.28-3.744 28.256-20.8 24.512-38.048-13.664-62.784-40.224-120.832-78.976-172.672-71.712-95.744-176.48-157.888-294.976-174.848C555.072-65.76 533.504-67.296 512.064-67.296z"  horiz-adv-x="1024" />

    
    <glyph glyph-name="dot1" unicode="&#58964;" d="M512 300m-87.02511 0a85.039 85.039 0 1 0 174.05022 0 85.039 85.039 0 1 0-174.05022 0Z"  horiz-adv-x="1024" />

    
    <glyph glyph-name="iconfontscan" unicode="&#58883;" d="M928 352 96 352c-17.664 0-32 14.336-32 32s14.336 32 32 32l832 0c17.696 0 32-14.336 32-32S945.696 352 928 352zM832-32l-192 0c-17.696 0-32 14.304-32 32s14.304 32 32 32l192 0c17.664 0 32 14.336 32 32l0 160c0 17.696 14.304 32 32 32s32-14.304 32-32l0-160C928 11.072 884.928-32 832-32zM352-32 192-32c-52.928 0-96 43.072-96 96l0 160c0 17.696 14.336 32 32 32s32-14.304 32-32l0-160c0-17.664 14.368-32 32-32l160 0c17.664 0 32-14.304 32-32S369.664-32 352-32zM128 512c-17.664 0-32 14.336-32 32L96 704c0 52.928 43.072 96 96 96l160 0c17.664 0 32-14.336 32-32s-14.336-32-32-32L192 736C174.368 736 160 721.632 160 704l0-160C160 526.336 145.664 512 128 512zM896 512c-17.696 0-32 14.336-32 32L864 704c0 17.632-14.336 32-32 32l-192 0c-17.696 0-32 14.336-32 32s14.304 32 32 32l192 0c52.928 0 96-43.072 96-96l0-160C928 526.336 913.696 512 896 512z"  horiz-adv-x="1024" />

    
    <glyph glyph-name="tianmaoguojiyingxiaodabiao" unicode="&#58882;" d="M946.128957 382.407736c0.650823 0.49528 0.970094 1.242294 1.031493 1.992377-0.061398 0.747014-0.38067 1.497097-1.031493 1.997494-12.415774 9.472745-19.261693 19.381419-19.780509 29.79049-0.032746 10.478655 4.15667 21.170159 14.620999 32.358989 0.545422 0.590448 0.716314 1.378393 0.605797 2.117221-0.109494 0.741897-0.512676 1.423419-1.207501 1.841951-13.281491 7.546883-20.590967 16.4783-23.645536 26.477025-2.602268 10.092869 0.982374 21.599947 10.000771 34.387181 0.424672 0.648776 0.448208 1.439792 0.192382 2.139733-0.258896 0.711198-0.788969 1.325182-1.560542 1.598404-14.637372 5.308913-24.102954 12.68695-27.652803 22.496363-3.258207 9.928117-2.843768 21.255093 4.025687 35.231409 0.340761 0.723477 0.279363 1.530866-0.045025 2.208295-0.330528 0.671289-0.903579 1.207501-1.686409 1.38351-14.493086 3.409656-25.045419 9.200546-30.691 17.99177-5.64558 8.755408-4.845355 21.391193-1.052982 35.68371 0.208754 0.751107 0 1.51347-0.451278 2.111081-0.441045 0.603751-1.119497 1.028423-1.929955 1.077541-15.44783 0.716314-26.549679 5.019317-32.785707 13.379729-7.02909 7.702426-9.146311 19.415189-6.919597 34.724873 0.104377 0.807389-0.188288 1.562589-0.695848 2.117221-0.49528 0.542352-1.212618 0.893346-2.00568 0.829901-14.764262-1.047866-27.285436 0.605797-34.81083 7.80885-7.53051 7.247054-11.278881 18.650779-11.838629 33.555234-0.033769 0.789992-0.442068 1.477654-1.060145 1.923816-0.593518 0.442068-1.36816 0.662079-2.140757 0.463558-15.050788-4.101411-26.172079-2.246157-35.379789 2.740414-8.908904 5.395894-14.34573 16.117073-16.748453 31.529087-0.132006 0.804319-0.618077 1.438769-1.258667 1.837858-0.62831 0.419556-1.475608 0.419556-2.213411 0.118704-14.261818-6.378268-26.224268-7.65433-35.606962-3.113921-9.185196 4.999874-16.693194 13.519921-21.48943 28.231995-0.251733 0.766456-0.849344 1.293459-1.555425 1.552356-0.706081 0.25378-1.500167 0.236384-2.194992-0.179079-12.868075-7.774057-24.342408-10.456143-34.567283-8.252964-10.122545 2.463098-18.422581 11.582803-25.467021 25.097608-0.388856 0.689708-1.062192 1.088798-1.801019 1.202385-0.73985 0.107447-1.528819-0.063445-2.13871-0.603751-11.641131-10.287297-22.63451-15.017018-32.94739-13.423731-10.29753 1.590218-20.053732 7.597025-29.051663 20.255323-0.472767 0.650823-1.215688 0.976234-1.953492 1.007957-0.7552 0.041956-1.509377-0.211824-2.026146-0.809435-9.936303-11.076266-20.081361-17.480116-30.497595-18.331507-10.398838-0.705058-21.073968 5.611811-31.833009 16.318664-0.575098 0.538259-1.333368 0.720408-2.072195 0.601704-0.738827-0.112564-1.444908-0.515746-1.874697-1.202385-8.026814-13.302981-17.104563-21.093411-27.415396-22.644743-10.284227-1.659803-21.401426 1.26583-33.791617 10.643408-0.639566 0.455371-1.444908 0.561795-2.174526 0.375553-0.727571-0.186242-1.36509-0.647753-1.687432-1.375324-6.152117-13.493316-13.769608-23.006993-23.518646-26.719548-9.670244-3.874237-21.972431-0.527003-35.20378 5.779633-0.717338 0.344854-1.503237 0.292666-2.174526-0.026606-0.672312-0.333598-1.236154-0.914836-1.423419-1.705851-3.647063-15.029298-10.019191-25.032116-19.370163-29.615505-8.900717-5.441942-20.808932-5.282307-35.418674-0.185218-0.771573 0.258896-1.563612 0.118704-2.200108-0.283456-0.63445-0.38374-1.118474-1.00898-1.215688-1.794879-1.744737-14.733563-5.747911-26.703175-14.249539-32.720216-8.552793-6.006807-20.442588-7.547907-35.181267-5.279237-0.796132 0.12382-1.534959-0.151449-2.084475-0.655939-0.564865-0.50756-0.912789-1.224898-0.873903-2.02103 1.169639-15.535835-2.745531-26.13217-9.405207-34.228569-6.991228-7.723915-18.556635-11.019984-34.147728-10.435677-0.813528 0.011256-1.544169-0.353041-2.040473-0.898463-0.463558-0.587378-0.672312-1.378393-0.496304-2.179642 3.529383-15.202237 2.483564-27.16571-3.770883-35.519981-6.67912-8.049327-16.370853-13.877055-31.818683-15.70468-0.794086-0.107447-1.433652-0.597611-1.822508-1.232061-0.38374-0.647753-0.512676-1.428535-0.25378-2.177596 5.053086-14.058181 5.711072-25.974581 1.512447-35.540448-4.313236-9.477862-15.179724-15.736403-29.441543-20.213367-0.750083-0.236384-1.26276-0.829901-1.518586-1.530866-0.265036-0.698918-0.243547-1.512447 0.153496-2.207271 7.818059-13.385868 10.284227-25.048489 6.682189-34.82618-2.958378-9.992585-11.302417-18.228153-25.38004-24.682146-0.730641-0.344854-1.191128-0.989537-1.38351-1.728364-0.187265-0.721431-0.084934-1.509377 0.388856-2.133593 8.806573-11.808954 14.069437-23.151279 12.378935-33.43653-1.396813-10.327206-9.934257-19.570731-21.829168-28.194132-0.649799-0.452301-0.970094-1.162476-1.00591-1.912559-0.055259-0.750083 0.197498-1.523703 0.807389-2.068102 11.42112-10.374278 17.225313-20.766976 16.681938-31.185256 0.543376-10.416234-5.26184-20.803815-16.681938-31.178093-0.60989-0.555655-0.862647-1.309832-0.807389-2.064009 0.035816-0.754177 0.356111-1.481747 1.00591-1.928932 11.894911-8.614192 20.431332-17.86795 21.829168-28.182876 1.689479-10.290367-3.572362-21.644973-12.378935-33.44881-0.473791-0.624217-0.576121-1.399883-0.400113-2.128477 0.190335-0.738827 0.664126-1.387603 1.394766-1.733481 14.077623-6.441713 22.410406-14.693654 25.368784-24.666796 3.603061-9.797134 1.134847-21.449521-6.670933-34.840506-0.408299-0.700965-0.418532-1.502213-0.165776-2.196015 0.25378-0.717338 0.779759-1.300622 1.529843-1.538029 14.262842-4.485151 25.12933-10.734482 29.441543-20.212344 4.198625-9.56382 3.51608-21.475104-1.518586-35.542494-0.267083-0.747014-0.137123-1.52575 0.24764-2.175549 0.400113-0.64059 1.039679-1.134847 1.833765-1.224898 15.436574-1.822508 25.139563-7.658424 31.807427-15.72003 6.265704-8.338922 7.299243-20.318768 3.770883-35.515888-0.176009-0.791016 0.033769-1.579985 0.496304-2.168386 0.506537-0.562818 1.237177-0.927115 2.050706-0.898463 15.59007 0.588401 27.146267-2.718925 34.147728-10.453073 6.6607-8.076956 10.55745-18.683525 9.405207-34.213219-0.052189-0.802272 0.309038-1.51347 0.862647-2.02717 0.559748-0.49835 1.298576-0.789992 2.094708-0.659009 14.728446 2.264577 26.628474 0.719384 35.181267-5.281283 8.501628-6.009877 12.504802-17.98256 14.249539-32.719192 0.096191-0.776689 0.569982-1.407046 1.201361-1.804089 0.649799-0.38374 1.441838-0.528026 2.213411-0.252757 14.609743 5.082762 26.5067 5.249561 35.418674-0.197498 9.350972-4.599761 15.7231-14.589276 19.358907-29.628808 0.198521-0.780783 0.750083-1.366114 1.433652-1.685385 0.672312-0.325411 1.457188-0.397043 2.163269-0.045025 13.242606 6.307659 25.544793 9.66922 35.20378 5.777587 9.750061-3.710508 17.365506-13.220093 23.529903-26.714432 0.312108-0.729617 0.959861-1.179872 1.687432-1.369184 0.729617-0.186242 1.523703-0.093121 2.174526 0.38067 12.390191 9.356089 23.496134 12.301164 33.781384 10.629081 10.320043-1.557472 19.397792-9.342786 27.424606-22.629393 0.418532-0.707105 1.124614-1.104147 1.874697-1.224898 0.727571-0.10847 1.485841 0.072655 2.061962 0.618077 10.759041 10.695596 21.434172 17.012466 31.833009 16.318664 10.416234-0.847298 20.572548-7.241938 30.498618-18.34788 0.528026-0.594541 1.281179-0.825808 2.025123-0.802272 0.750083 0.031722 1.477654 0.373507 1.965771 1.013073 8.997931 12.647041 18.741853 18.677385 29.051663 20.244067 10.31288 1.608637 21.306258-3.122107 32.937157-13.417591 0.620124-0.531096 1.39886-0.706081 2.149966-0.591471 0.738827 0.105401 1.412163 0.511653 1.801019 1.186012 7.04444 13.527085 15.33322 22.646789 25.455765 25.112957 10.223852 2.209318 21.699208-0.49221 34.57854-8.265244 0.683569-0.412392 1.487887-0.428765 2.183735-0.176009 0.716314 0.258896 1.302669 0.783853 1.565658 1.554402 4.78498 14.703887 12.294001 23.221888 21.48943 28.227901 9.382695 4.541433 21.334911 3.2623 35.606962-3.098571 0.737804-0.314155 1.573845-0.314155 2.213411 0.099261 0.629333 0.397043 1.127683 1.036609 1.258667 1.852184 2.39249 15.404852 7.839549 26.122961 16.748453 31.503505 9.207709 5.006014 20.329001 6.857175 35.368532 2.753717 0.783853-0.189312 1.557472 0.024559 2.152013 0.472767 0.618077 0.434905 1.026376 1.12666 1.060145 1.912559 0.559748 14.908548 4.308119 26.309202 11.838629 33.55728 7.525394 7.209192 20.046568 8.844435 34.81083 7.807826 0.793062-0.063445 1.499144 0.287549 2.00568 0.833995 0.50756 0.553609 0.799202 1.304715 0.695848 2.117221-2.238994 15.305591-0.109494 27.01733 6.919597 34.725896 6.236028 8.359388 17.337877 12.662391 32.785707 13.374612 0.810459 0.049119 1.488911 0.472767 1.929955 1.077541 0.451278 0.598634 0.661056 1.346671 0.451278 2.122337-3.792373 14.281261-4.591575 26.91807 1.052982 35.661198 5.646604 8.7902 16.197914 14.575973 30.691 17.992793 0.783853 0.176009 1.355881 0.729617 1.686409 1.393743 0.324388 0.683569 0.385786 1.485841 0.045025 2.207271-6.869455 13.984503-7.271614 25.308409-4.025687 35.234479 3.550873 9.794064 13.016455 17.184381 27.652803 22.487154 0.772596 0.285502 1.301645 0.895393 1.571798 1.596358 0.243547 0.698918 0.221034 1.489934-0.203638 2.149966-9.018398 12.792351-12.603039 24.298406-10.000771 34.387181 3.054569 10.003841 10.365068 18.911722 23.645536 26.482141 0.694825 0.403183 1.096984 1.084705 1.207501 1.835811 0.110517 0.738827-0.060375 1.515516-0.605797 2.117221-10.465352 11.19497-14.653745 21.881356-14.620999 32.357965C926.867264 363.020176 933.713182 372.929874 946.128957 382.407736z"  horiz-adv-x="1024" />

    
    <glyph glyph-name="cc-dot" unicode="&#59071;" d="M692.072 554.138c-48.373 48.387-112.706 75.024-181.147 75.024-68.441 0-132.747-26.637-181.149-75.024-48.4-48.375-75.023-112.708-75.023-181.123s26.623-132.746 75.023-181.147c48.375-48.402 112.708-75.024 181.149-75.024 68.442 0 132.745 26.648 181.147 75.024 48.428 48.374 75.025 112.707 75.025 181.147 0 68.441-26.649 132.747-75.025 181.123z"  horiz-adv-x="1024" />

    
    <glyph glyph-name="dot" unicode="&#58943;" d="M512 597.333333c117.333333 0 213.333333-96 213.333333-213.333333s-96-213.333333-213.333333-213.333333-213.333333 96-213.333333 213.333333S394.666667 597.333333 512 597.333333z"  horiz-adv-x="1024" />

    
    <glyph glyph-name="tianjiayonghu" unicode="&#58972;" d="M850.375126 35.731174 770.481518 35.731174l0 79.877235c0 13.247722-10.735505 23.967878-23.967878 23.967878-13.233396 0-23.968901-10.720156-23.968901-23.967878l0-79.877235-79.893608 0c-13.247722 0-23.968901-10.737552-23.968901-23.968901 0-13.234419 10.721179-23.967878 23.968901-23.967878l79.893608 0 0-79.912028c0-13.231349 10.735505-23.967878 23.968901-23.967878 13.232372 0 23.967878 10.736529 23.967878 23.967878l0 79.912028 79.893608 0c13.233396 0 23.968901 10.733459 23.968901 23.967878C874.344027 24.993622 863.607498 35.731174 850.375126 35.731174zM770.27788 179.522068c-40.228213 54.633295-96.340185 96.889701-161.457252 120.171963 65.490573 36.935214 109.869317 106.889449 109.869317 187.080839 0 118.515231-96.762811 214.934211-215.714993 214.934211s-215.71397-96.41898-215.71397-214.934211c0-77.257571 41.241286-144.917554 102.81669-182.805466-139.191132-43.738154-240.415558-173.505659-240.415558-326.443887 0-4.632507 0.514723-9.128915 0.701988-13.716396l47.936779 0c-0.217964 4.573155-0.703011 9.083889-0.703011 13.716396 0 162.285107 132.605134 294.315142 295.608601 294.315142 84.483136 0 160.724565-35.546587 214.654848-92.318592L770.27788 179.522068zM335.19776 486.774871c0 92.081185 75.260078 166.997432 167.778214 166.997432 92.518137 0 167.778214-74.916247 167.778214-166.997432 0-92.082208-75.260078-166.997432-167.778214-166.997432C410.457838 319.777439 335.19776 394.692662 335.19776 486.774871z"  horiz-adv-x="1024" />

    
    <glyph glyph-name="5yuan" unicode="&#58930;" d="M510.030647 408.969695c-27.345812 0-49.510624-22.158672-49.510624-49.510624 0-27.338648 22.164812-49.511647 49.510624-49.511647 27.346835 0 49.510624 22.172999 49.510624 49.511647C559.541271 386.811022 537.377482 408.969695 510.030647 408.969695z"  horiz-adv-x="1024" />

    
    <glyph glyph-name="adduserregular" unicode="&#58884;" d="M450.68974 404.410383c85.913473 0 167.871446-32.751545 229.260816-81.799753l16.296663 0 44.934487 0c-49.206428 49.206428-114.709518 90.185414-184.326329 106.482077 81.799753 40.978986 135.119901 122.778739 135.119901 221.191595C692.133498 785.404203 581.695921 896 446.4178 896S200.543881 785.562423 200.543881 650.284302c0-98.254635 57.275649-180.212608 135.119901-221.191595C167.792336 384 40.899876 224.355995 40.899876 35.915946l0-122.778739 491.431397 0 0 40.978986L82.195303-45.883807l0 81.799753C82.195303 240.494438 245.953028 404.410383 450.68974 404.410383zM245.953028 650.126082c0 114.709518 90.185414 204.736712 204.736712 204.736712s204.736712-90.185414 204.736712-204.736712-90.185414-204.736712-204.736712-204.736712S245.953028 535.416564 245.953028 650.126082zM983.100124 35.915946 860.321384 35.915946 860.321384 158.694685 819.184178 158.694685 819.184178 35.915946 696.405439 35.915946 696.405439-5.063041 819.184178-5.063041 819.184178-128 860.321384-128 860.321384-5.063041 983.100124-5.063041Z"  horiz-adv-x="1024" />

    
    <glyph glyph-name="shangjiantou" unicode="&#58880;" d="M65.582671 160.791335l446.417329 446.41733 446.417329-446.41733z"  horiz-adv-x="1024" />

    
    <glyph glyph-name="xiajiantou" unicode="&#58881;" d="M65.582671 607.208665l446.417329-446.41733 446.417329 446.41733z"  horiz-adv-x="1024" />

    
    <glyph glyph-name="rili" unicode="&#59599;" d="M864 704H704v64h-64v-64H384v64h-64v-64H160c-17.6 0-32-14.4-32-32v-640c0-17.6 14.4-32 32-32h704c17.6 0 32 14.4 32 32V672c0 17.6-14.4 32-32 32z m-32-640H192V512h640v-448zM384 384H256v64h128v-64z m192 0H448v64h128v-64z m192 0H640v64h128v-64zM384 256H256v64h128v-64z m192 0H448v64h128v-64z m192 0H640v64h128v-64zM384 128H256v64h128v-64z m192 0H448v64h128v-64z"  horiz-adv-x="1024" />

    
    <glyph glyph-name="rili-xianxing-xi" unicode="&#59669;" d="M352 768h32v-128h-32zM640 320h128v-32H640zM416 704h192v-32H416zM640 768h32v-128h-32zM448 448h128v-32H448zM640 448h128v-32H640zM448 320h128v-32H448zM256 320h128v-32H256zM864 704H704v-32h160v-64H160v64h160v32H160c-17.6 0-32-14.4-32-32v-640c0-17.6 14.4-32 32-32h704c17.6 0 32 14.4 32 32V672c0 17.6-14.4 32-32 32z m0-672H160V576h704v-544zM256 192h128v-32H256zM256 448h128v-32H256zM448 192h128v-32H448z"  horiz-adv-x="1024" />

    
    <glyph glyph-name="add" unicode="&#59697;" d="M469.333333 426.666667H170.666667v-85.333334h298.666666v-298.666666h85.333334v298.666666h298.666666v85.333334h-298.666666V725.333333h-85.333334v-298.666666z"  horiz-adv-x="1024" />

    
    <glyph glyph-name="back" unicode="&#59700;" d="M376.064 384l302.293333 302.336L618.026667 746.666667 256 384.64l0.597333-0.64-0.597333-0.597333 362.026667-362.069334 60.330666 60.373334L376.064 384z"  horiz-adv-x="1024" />

    
    <glyph glyph-name="close" unicode="&#59708;" d="M562.858667 365.866667l271.530666 271.530666-60.330666 60.373334-271.530667-271.530667-271.530667 271.530667L170.666667 637.397333l271.530666-271.530666L170.666667 94.336l60.330666-60.330667 271.530667 271.530667 271.530667-271.530667 60.330666 60.330667-271.530666 271.530667z"  horiz-adv-x="1024" />

    
    <glyph glyph-name="complete-r" unicode="&#59709;" d="M456.704 346.538667L600.832 490.666667l60.330667-60.330667-204.032-204.032-1.194667 1.194667-0.426667-0.426667-143.488 143.530667L372.352 430.933333l84.352-84.394666zM490.666667 0a362.666667 362.666667 0 1 0 0 725.333333 362.666667 362.666667 0 0 0 0-725.333333z m0 85.333333a277.333333 277.333333 0 1 1 0 554.666667 277.333333 277.333333 0 0 1 0-554.666667z"  horiz-adv-x="1024" />

    
    <glyph glyph-name="complete" unicode="&#59710;" d="M379.050667 62.890667l1.28-1.28L898.389333 579.669333 838.058667 640 378.709333 180.650667 143.402667 416l-60.373334-60.330667 294.4-294.4 1.621334 1.621334z"  horiz-adv-x="1024" />

    
    <glyph glyph-name="dialog" unicode="&#59714;" d="M293.12 312.618667l79.616-45.909334-62.421333-36.053333 180.266666-104.106667 180.266667 104.106667-62.336 35.968 79.658667 45.994667 153.514666-88.618667L490.666667 21.333333l-351.018667 202.666667 153.514667 88.618667zM841.728 480L490.666667 277.333333 139.648 480 490.666667 682.666667l351.018666-202.666667z m-351.146667 110.72L310.357333 486.656l180.266667-104.106667 180.266667 104.106667-180.266667 104.106667z"  horiz-adv-x="1024" />

    
    <glyph glyph-name="error-r" unicode="&#59718;" d="M490.666667 422.997333l75.434666 75.434667 60.330667-60.330667-75.434667-75.434666 75.434667-75.434667-60.330667-60.330667-75.434666 75.434667-75.434667-75.434667-60.330667 60.330667 75.434667 75.434667-75.434667 75.434666 60.330667 60.330667 75.434667-75.434667zM234.24 106.24A362.666667 362.666667 0 1 0 747.093333 619.093333 362.666667 362.666667 0 0 0 234.24 106.24z m60.842667 59.776a277.333333 277.333333 0 1 1 392.234666 392.234667 277.333333 277.333333 0 0 1-392.234666-392.234667z"  horiz-adv-x="1024" />

    
    <glyph glyph-name="exclamatory-mark-r" unicode="&#59719;" d="M490.666667 0a362.666667 362.666667 0 1 0 0 725.333333 362.666667 362.666667 0 0 0 0-725.333333z m0 85.333333a277.333333 277.333333 0 1 1 0 554.666667 277.333333 277.333333 0 0 1 0-554.666667z m42.666666 170.666667v-85.333333h-85.333333v85.333333h85.333333z m0 298.666667v-256h-85.333333V554.666667h85.333333z"  horiz-adv-x="1024" />

    
    <glyph glyph-name="extend" unicode="&#59721;" d="M512 252.330667L209.664 554.666667 149.333333 494.336l362.026667-362.026667 0.64 0.597334 0.597333-0.597334L874.666667 494.336 814.293333 554.666667 512 252.330667z"  horiz-adv-x="1024" />

    
    <glyph glyph-name="exit-fullscreen" unicode="&#59722;" d="M282.965333 213.333333H213.333333v85.333334h213.333334v-213.333334H341.333333v65.706667L215.893333 25.6l-60.330666 60.373333L282.965333 213.333333z m415.402667 0H768v85.333334h-213.333333v-213.333334h85.333333v65.706667l125.44-125.44 60.330667 60.373333L698.368 213.333333zM281.002667 512H213.333333v-85.333333h213.333334V640H341.333333v-67.669333L230.997333 682.666667 170.666667 622.336 281.002667 512z m423.594666 0H768v-85.333333h-213.333333V640h85.333333v-71.893333L754.56 682.666667 814.933333 622.336 704.597333 512z"  horiz-adv-x="1024" />

    
    <glyph glyph-name="fullscreen" unicode="&#59726;" d="M316.330667 128H384v-85.333333H170.666667v213.333333h85.333333v-67.626667L383.36 315.733333l60.330667-60.330666L316.330667 128z m344.405333 0H597.333333v-85.333333h213.333334v213.333333h-85.333334v-71.936L593.664 315.733333 533.333333 255.402667 660.736 128zM316.330667 597.333333H384V682.666667H170.666667v-213.333334h85.333333V537.002667L383.36 409.6 443.733333 469.973333 316.330667 597.333333z m344.362666 0H597.333333V682.666667h213.333334v-213.333334h-85.333334V541.269333l-131.669333-131.626666L533.333333 469.973333 660.693333 597.333333z"  horiz-adv-x="1024" />

    
    <glyph glyph-name="forward" unicode="&#59725;" d="M643.669333 384L341.333333 686.336 401.664 746.666667l362.026667-362.026667-0.597334-0.64 0.597334-0.597333L401.664 21.333333 341.333333 81.706667 643.669333 384z"  horiz-adv-x="1024" />

    
    <glyph glyph-name="info-r" unicode="&#59731;" d="M533.333333 256h42.666667v-85.333333h-170.666667v85.333333h42.666667v128h-42.666667v85.333333h128v-213.333333z m-42.666666-256a362.666667 362.666667 0 1 0 0 725.333333 362.666667 362.666667 0 0 0 0-725.333333z m0 85.333333a277.333333 277.333333 0 1 1 0 554.666667 277.333333 277.333333 0 0 1 0-554.666667z m42.666666 512v-85.333333h-85.333333V597.333333h85.333333z"  horiz-adv-x="1024" />

    
    <glyph glyph-name="minus-r" unicode="&#59741;" d="M490.666667 0a362.666667 362.666667 0 1 0 0 725.333333 362.666667 362.666667 0 0 0 0-725.333333z m0 85.333333a277.333333 277.333333 0 1 1 0 554.666667 277.333333 277.333333 0 0 1 0-554.666667zM298.666667 405.333333h384v-85.333333H298.666667v85.333333z"  horiz-adv-x="1024" />

    
    <glyph glyph-name="minus" unicode="&#59743;" d="M170.666667 426.666667h682.666666v-85.333334H170.666667z"  horiz-adv-x="1024" />

    
    <glyph glyph-name="minus-s" unicode="&#59742;" d="M170.666667 682.666667h640v-640H170.666667V682.666667z m85.333333-85.333334v-469.333333h469.333333V597.333333H256z m384-192v-85.333333H341.333333v85.333333h298.666667z"  horiz-adv-x="1024" />

    
    <glyph glyph-name="search" unicode="&#59760;" d="M448 85.333333a320 320 0 1 0 0 640 320 320 0 0 0 0-640z m0 85.333334a234.666667 234.666667 0 1 1 0 469.333333 234.666667 234.666667 0 0 1 0-469.333333z m273.664 0l120.704-120.661334-60.373333-60.373333-120.661334 120.704L721.664 170.666667z"  horiz-adv-x="1024" />

    
    <glyph glyph-name="shrink" unicode="&#59763;" d="M512 477.269333l-302.336-302.293333L149.333333 235.306667 511.36 597.333333l0.64-0.597333 0.597333 0.597333 362.069334-362.026666-60.373334-60.330667L512 477.269333z"  horiz-adv-x="1024" />

    
    <glyph glyph-name="add-o" unicode="&#59781;" d="M469.333333 384H128v-42.666667h341.333333v-341.333333h42.666667v341.333333h341.333333v42.666667h-341.333333V725.333333h-42.666667v-341.333333z"  horiz-adv-x="1024" />

    
    <glyph glyph-name="add-s-o" unicode="&#59782;" d="M512 341.333333v-128h-42.666667v128H341.333333v42.666667h128V512h42.666667v-128h128v-42.666667h-128zM170.666667 682.666667h640v-640H170.666667V682.666667z m42.666666-42.666667v-554.666667h554.666667V640H213.333333z"  horiz-adv-x="1024" />

    
    <glyph glyph-name="add-r-o" unicode="&#59783;" d="M469.333333 384V554.666667h42.666667v-170.666667h170.666667v-42.666667h-170.666667v-170.666666h-42.666667v170.666666H298.666667v42.666667h170.666666z m21.333334-384a362.666667 362.666667 0 1 0 0 725.333333 362.666667 362.666667 0 0 0 0-725.333333z m0 42.666667a320 320 0 1 1 0 640 320 320 0 0 1 0-640z"  horiz-adv-x="1024" />

    
    <glyph glyph-name="back-o" unicode="&#59785;" d="M354.261333 358.570667l332.373334-332.373334-30.208-30.122666L294.4 358.101333l0.426667 0.426667-0.426667 0.512L656.426667 721.066667l30.165333-30.165334-332.330667-332.373333z"  horiz-adv-x="1024" />

    
    <glyph glyph-name="back-r-o" unicode="&#59786;" d="M411.306667 390.272l-0.170667 0.128-30.165333-30.165333 0.128-0.170667-0.128-0.128 30.165333-30.165333 0.128 0.128 113.237333-113.194667 30.165334 30.165333-113.194667 113.194667L554.666667 473.301333l-30.165334 30.165334-113.237333-113.194667zM490.666667 0a362.666667 362.666667 0 1 1 0 725.333333 362.666667 362.666667 0 0 1 0-725.333333z m0 42.666667a320 320 0 1 0 0 640 320 320 0 0 0 0-640z"  horiz-adv-x="1024" />

    
    <glyph glyph-name="checkbox-selected-o" unicode="&#59791;" d="M456.661333 302.165333l181.205334 181.162667 30.165333-30.165333-211.2-211.2-0.170667 0.170666-0.128-0.128-125.866666 125.866667 30.165333 30.122667 95.829333-95.829334zM170.666667 682.666667h640v-640H170.666667V682.666667z m42.666666-42.666667v-554.666667h554.666667V640H213.333333z"  horiz-adv-x="1024" />

    
    <glyph glyph-name="close-o" unicode="&#59792;" d="M520.832 365.866667l286.634667 286.634666L777.301333 682.666667 490.666667 396.032 204.032 682.666667l-30.165333-30.165334 286.634666-286.634666-286.634666-286.592 30.165333-30.165334 286.634667 286.592 286.634666-286.592 30.165334 30.165334-286.634667 286.592z"  horiz-adv-x="1024" />

    
    <glyph glyph-name="complete-r-o" unicode="&#59795;" d="M464.384 288.554667L645.162667 469.333333l30.165333-30.165333-197.12-197.162667-0.896 0.853334-13.781333-13.781334L320 372.608l30.165333 30.165333 114.218667-114.218666zM490.666667 0a362.666667 362.666667 0 1 0 0 725.333333 362.666667 362.666667 0 0 0 0-725.333333z m0 42.666667a320 320 0 1 1 0 640 320 320 0 0 1 0-640z"  horiz-adv-x="1024" />

    
    <glyph glyph-name="delete-o" unicode="&#59797;" d="M213.333333 640h554.666667v-640H213.333333V640z m42.666667-42.666667v-554.666666h469.333333V597.333333H256z m128-128h42.666667v-298.666666H384v298.666666z m170.666667 0h42.666666v-298.666666h-42.666666v298.666666zM170.666667 640h640v-42.666667H170.666667V640z m213.333333 85.333333h213.333333v-42.666666H384V725.333333z"  horiz-adv-x="1024" />

    
    <glyph glyph-name="dialog-o" unicode="&#59798;" d="M293.12 312.618667l42.666667-24.618667-110.805334-64 265.685334-153.386667 265.685333 153.386667-110.848 64 42.666667 24.618667 153.514666-88.618667L490.666667 21.333333l-351.018667 202.666667 153.514667 88.618667zM841.728 480L490.666667 277.333333 139.648 480 490.666667 682.666667l351.018666-202.666667zM490.666667 633.386667L224.981333 480l265.685334-153.386667 265.685333 153.386667L490.666667 633.386667z"  horiz-adv-x="1024" />

    
    <glyph glyph-name="edit-o" unicode="&#59801;" d="M501.589333 655.786667l241.365334-241.365334-372.394667-372.394666H129.194667v241.365333l372.394666 372.394667z m0-60.330667l-329.728-329.728v-181.034667h181.034667L682.666667 414.421333l-181.034667 181.034667zM572.032 725.333333l241.365333-241.365333-30.165333-30.165333L541.866667 695.168 572.032 725.333333z"  horiz-adv-x="1024" />

    
    <glyph glyph-name="error-r-o" unicode="&#59802;" d="M460.501333 362.666667L339.797333 483.328l30.208 30.208 120.661334-120.704 120.661333 120.704 30.208-30.208-120.704-120.661333 120.704-120.661334-30.208-30.208-120.661333 120.704-120.661334-120.704-30.208 30.208 120.704 120.661334zM490.666667 0a362.666667 362.666667 0 1 0 0 725.333333 362.666667 362.666667 0 0 0 0-725.333333z m0 42.666667a320 320 0 1 1 0 640 320 320 0 0 1 0-640z"  horiz-adv-x="1024" />

    
    <glyph glyph-name="drop-o" unicode="&#59803;" d="M858.538667 495.872L874.666667 512h-768l42.666666-42.666667h0.341334l311.125333-311.125333 30.165333-30.208 30.208 30.165333 337.749334 337.749334-0.384-0.042667z m-86.613334-26.538667l-280.917333-280.96L210.005333 469.333333h561.92z"  horiz-adv-x="1024" />

    
    <glyph glyph-name="error-s-o" unicode="&#59804;" d="M490.666667 392.832l90.496 90.496 30.165333-30.165333-90.453333-90.496 90.453333-90.496-30.165333-30.165334-90.496 90.453334-90.496-90.453334-30.165334 30.165334 90.453334 90.496-90.453334 90.496 30.165334 30.165333 90.496-90.453333zM170.666667 682.666667h640v-640H170.666667V682.666667z m42.666666-42.666667v-554.666667h554.666667V640H213.333333z"  horiz-adv-x="1024" />

    
    <glyph glyph-name="exclamatory-mark-r-o" unicode="&#59805;" d="M490.666667 0a362.666667 362.666667 0 1 0 0 725.333333 362.666667 362.666667 0 0 0 0-725.333333z m0 42.666667a320 320 0 1 1 0 640 320 320 0 0 1 0-640z m21.333333 170.666666v-42.666666h-42.666667v42.666666h42.666667z m0 341.333334v-298.666667h-42.666667V554.666667h42.666667z"  horiz-adv-x="1024" />

    
    <glyph glyph-name="extend-o" unicode="&#59806;" d="M490.496 222.293333L158.165333 554.666667 128 524.501333l362.026667-362.026666 0.469333 0.426666 0.469333-0.426666 362.026667 362.026666L822.826667 554.666667l-332.330667-332.373334z"  horiz-adv-x="1024" />

    
    <glyph glyph-name="exit-fullscreen-o" unicode="&#59810;" d="M310.826667 213.333333H213.333333v42.666667h170.666667v-170.666667H341.333333v98.133334l-140.501333-140.458667L170.666667 73.173333 310.826667 213.333333z m359.68 0H768v42.666667h-170.666667v-170.666667h42.666667v98.133334l140.501333-140.458667 30.165334 30.165333L670.506667 213.333333zM311.168 512H213.333333v-42.666667h170.666667V640H341.333333v-97.834667L200.832 682.666667 170.666667 652.501333 311.168 512z m358.997333 0H768v-42.666667h-170.666667V640h42.666667v-97.834667L780.501333 682.666667l30.165334-30.165334L670.165333 512z"  horiz-adv-x="1024" />

    
    <glyph glyph-name="extend-r-o" unicode="&#59807;" d="M460.032 286.293333l-0.128-0.128 30.165333-30.165333 0.128 0.128 0.170667-0.128 30.165333 30.165333-0.128 0.170667 113.194667 113.194667-30.165333 30.165333-113.237334-113.194667-113.194666 113.194667-30.165334-30.165333 113.194667-113.194667zM490.666667 725.333333a362.666667 362.666667 0 1 1 0-725.333333 362.666667 362.666667 0 0 1 0 725.333333z m0-42.666666a320 320 0 1 0 0-640 320 320 0 0 0 0 640z"  horiz-adv-x="1024" />

    
    <glyph glyph-name="forward-o" unicode="&#59808;" d="M669.44 358.570667l-332.373333-332.373334 30.165333-30.122666 362.026667 362.026666-0.426667 0.426667 0.426667 0.512L367.232 721.066667l-30.165333-30.165334 332.373333-332.373333z"  horiz-adv-x="1024" />

    
    <glyph glyph-name="forward-r-o" unicode="&#59809;" d="M570.026667 390.272l0.170666 0.128 30.165334-30.165333-0.128-0.170667 0.128-0.128-30.165334-30.165333-0.128 0.128-113.237333-113.194667-30.165333 30.165333 113.194666 113.194667L426.666667 473.301333l30.165333 30.165334 113.237333-113.194667zM490.666667 0a362.666667 362.666667 0 1 0 0 725.333333 362.666667 362.666667 0 0 0 0-725.333333z m0 42.666667a320 320 0 1 1 0 640 320 320 0 0 1 0-640z"  horiz-adv-x="1024" />

    
    <glyph glyph-name="fullscreen-o" unicode="&#59811;" d="M243.2 85.333333H341.333333v-42.666666H170.666667v170.666666h42.666666v-97.493333L340.693333 243.2l30.165334-30.165333L243.2 85.333333z m494.933333 0H640v-42.666666h170.666667v170.666666h-42.666667v-97.493333L640.64 243.2l-30.165333-30.165333L738.133333 85.333333zM243.541333 640H341.333333V682.666667H170.666667v-170.666667h42.666666V609.834667l127.36-127.36 30.165334 30.165333L243.498667 640z m494.336 0H640V682.666667h170.666667v-170.666667h-42.666667V609.834667l-127.36-127.36-30.165333 30.165333L737.834667 640z"  horiz-adv-x="1024" />

    
    <glyph glyph-name="info-r-o" unicode="&#59814;" d="M512 256h42.666667v-42.666667h-128v42.666667h42.666666v170.666667h-42.666666v42.666666h85.333333v-213.333333z m-21.333333-256a362.666667 362.666667 0 1 0 0 725.333333 362.666667 362.666667 0 0 0 0-725.333333z m0 42.666667a320 320 0 1 1 0 640 320 320 0 0 1 0-640zM512 554.666667v-42.666667h-42.666667V554.666667h42.666667z"  horiz-adv-x="1024" />

    
    <glyph glyph-name="minus-r-o" unicode="&#59824;" d="M490.666667 0a362.666667 362.666667 0 1 0 0 725.333333 362.666667 362.666667 0 0 0 0-725.333333z m0 42.666667a320 320 0 1 1 0 640 320 320 0 0 1 0-640zM298.666667 384h384v-42.666667H298.666667v42.666667z"  horiz-adv-x="1024" />

    
    <glyph glyph-name="minus-s-o" unicode="&#59825;" d="M170.666667 682.666667h640v-640H170.666667V682.666667z m42.666666-42.666667v-554.666667h554.666667V640H213.333333z m426.666667-256v-42.666667H341.333333v42.666667h298.666667z"  horiz-adv-x="1024" />

    
    <glyph glyph-name="rise-o" unicode="&#59842;" d="M858.538667 186.794667L874.666667 170.666667h-768l42.666666 42.666666h0.341334L460.8 524.458667 490.965333 554.666667l30.208-30.165334 337.749334-337.749333-0.384 0.042667zM771.925333 213.333333l-280.917333 280.96L210.005333 213.333333h561.92z"  horiz-adv-x="1024" />

    
    <glyph glyph-name="search-o" unicode="&#59846;" d="M448 85.333333a320 320 0 1 0 0 640 320 320 0 0 0 0-640z m0 42.666667a277.333333 277.333333 0 1 1 0 554.666667 277.333333 277.333333 0 0 1 0-554.666667z m264.832 42.666667l120.704-120.661334-30.208-30.208L682.666667 140.501333l30.165333 30.165334z"  horiz-adv-x="1024" />

    
    <glyph glyph-name="shrink-r-o" unicode="&#59849;" d="M460.032 439.04l-0.128 0.128 30.165333 30.165333 0.128-0.128 0.170667 0.128 30.165333-30.165333-0.128-0.170667 113.194667-113.194666-30.165333-30.165334-113.237334 113.194667-113.194666-113.194667-30.165334 30.165334 113.194667 113.194666zM490.666667 0a362.666667 362.666667 0 1 0 0 725.333333 362.666667 362.666667 0 0 0 0-725.333333z m0 42.666667a320 320 0 1 1 0 640 320 320 0 0 1 0-640z"  horiz-adv-x="1024" />

    
    <glyph glyph-name="shrink-o" unicode="&#59850;" d="M490.496 537.472l332.373333-332.373333 30.122667 30.208L490.965333 597.333333l-0.426666-0.426666-0.512 0.426666L128 235.306667l30.165333-30.165334 332.373334 332.330667z"  horiz-adv-x="1024" />

    
    <glyph glyph-name="sort-o" unicode="&#59851;" d="M490.666667 77.610667l0.426666-0.469334 191.402667 191.36L652.373333 298.666667 490.666667 136.96 328.96 298.666667l-30.122667-30.165334 191.36-191.36 0.469334 0.426667z m0 502.528l161.706666-161.706667 30.122667 30.208L491.136 640l-0.469333-0.426667-0.426667 0.426667-191.402667-191.36 30.165334-30.165333L490.666667 580.138667z"  horiz-adv-x="1024" />

    
    <glyph glyph-name="arrow-down" unicode="&#59864;" d="M490.496 264.96L243.498667 512 213.333333 481.834667l276.693334-276.693334 0.469333 0.426667 0.469333-0.426667 276.693334 276.693334L737.493333 512l-246.997333-247.04z"  horiz-adv-x="1024" />

    
    <glyph glyph-name="arrow-left" unicode="&#59865;" d="M396.928 358.570667l247.04-247.04-30.208-30.122667L337.066667 358.101333l0.426666 0.426667-0.426666 0.512L613.76 635.733333l30.165333-30.165333-246.997333-247.04z"  horiz-adv-x="1024" />

    
    <glyph glyph-name="arrow-right" unicode="&#59866;" d="M626.773333 358.570667l-247.04-247.04 30.165334-30.122667 276.693333 276.693333-0.426667 0.426667 0.426667 0.512L409.898667 635.733333l-30.165334-30.165333 247.04-247.04z"  horiz-adv-x="1024" />

    
    <glyph glyph-name="arrow-up" unicode="&#59867;" d="M490.496 452.138667l247.04-247.04 30.122667 30.208L490.965333 512l-0.426666-0.426667-0.512 0.426667L213.333333 235.306667l30.165334-30.165334 247.04 246.997334z"  horiz-adv-x="1024" />

    
    <glyph glyph-name="arrow-down1" unicode="&#59868;" d="M533.162667 307.626667L371.498667 469.333333 341.333333 439.168l191.36-191.36 0.469334 0.426667 0.469333-0.426667 191.36 191.36-30.165333 30.165333-161.664-161.706666z"  horiz-adv-x="1024" />

    
    <glyph glyph-name="arrow-right1" unicode="&#59869;" d="M584.106667 358.570667l-161.706667-161.706667 30.165333-30.122667 191.36 191.36-0.426666 0.426667 0.426666 0.512L452.565333 550.4l-30.165333-30.165333 161.706667-161.706667z"  horiz-adv-x="1024" />

    
    <glyph glyph-name="arrow-left1" unicode="&#59870;" d="M439.594667 358.570667l161.706666-161.706667-30.208-30.122667L379.733333 358.101333l0.426667 0.426667-0.426667 0.512L571.093333 550.4l30.165334-30.165333-161.664-161.706667z"  horiz-adv-x="1024" />

    
    <glyph glyph-name="arrow-up1" unicode="&#59871;" d="M533.162667 409.472l161.706666-161.706667 30.122667 30.208L533.632 469.333333l-0.426667-0.426666-0.512 0.426666L341.333333 277.973333l30.165334-30.165333 161.706666 161.664z"  horiz-adv-x="1024" />

    
    <glyph glyph-name="user-add" unicode="&#59193;" d="M859.9 132.4h-87.8v87.8c0 19.9-16.2 36.1-36.1 36.1-19.9 0-36.1-16.2-36.1-36.1v-87.8h-87.8c-19.9 0-36.1-16.2-36.1-36.1 0-19.9 16.2-36.1 36.1-36.1h87.8v-87.8c0-19.9 16.2-36.1 36.1-36.1 19.9 0 36.1 16.2 36.1 36.1v87.8h87.8c19.9 0 36.1 16.2 36.1 36.1 0 20-16.2 36.1-36.1 36.1zM736 607.5C736 731.5 635.7 832 512 832S288 731.5 288 607.5 388.3 383 512 383s224 100.5 224 224.5zM512 455.2c-83.9 0-152 68.2-152 152.3s68.1 152.3 152 152.3 152-68.2 152-152.3-68.1-152.3-152-152.3z m210-134.8C661.6 360 589.5 383 512 383c-212.1 0-384-172.3-384-384.9h0.1c0-0.7-0.1-1.3-0.1-2 0-19.9 16.1-36.1 36-36.1s36 16.2 36 36.1c0 0.7 0 1.3-0.1 2h0.1c0 172.7 139.7 312.7 312 312.7 39.2 0 76.7-7.2 111.2-20.5 29.4 17.2 62.9 27.9 98.8 30.1z"  horiz-adv-x="1024" />

    


  </font>
</defs>
</svg>
